首页 世界内容详情

[2022] [大陆] [真人秀] [WEB-1080P] 爸爸当家[全12集][上][下][国语配音/中文字幕].Ba.Ba.Ba.2022.S01.1080p.WEB-DL.H264.AAC-Huawei 30.38

2023-08-31 5 lxacg

[2022] [大陆] [真人秀] [WEB-1080P] 爸爸当家[全12集][上][下][国语配音/中文字幕].Ba.Ba.Ba.2022.S01.1080p.WEB-DL.H264.AAC-Huawei 30.38

-->

完整标题:爸爸当家[全12集][上][下][国语配音/中文字幕].Ba.Ba.Ba.2022.S01.1080p.WEB-DL.H264.AAC-Huawei 30.38GB



◎标  题 爸爸当家
◎年  代 2022
◎产  地 中国大陆
◎类  别 真人秀
◎语  言 汉语普通话
◎IMDb链接 https://www.imdb.com/title//
◎豆瓣评分 8.4/10 (6026人评价)
◎豆瓣链接 https://movie.douban.com/subject/35819144/
◎演  员 李艾 Ai Li
      魏晨 Vision Wei
      王祖蓝 Cho-lam Wong
      李亚男 Leanne Lee
      张效诚 Xiaocheng Zhang
      吴敏霞 Minxia Wu
      肖杰

◎简  介
    聚焦当下男女就业机会平等的趋势、多元化家庭分工和愈发普遍的“全职爸爸”育儿现象,通过观察素人全职爸爸照顾家庭、抚育孩子的日常生活,探讨家庭教育中男性角色的重要性,旨在对育儿关系、家庭教育等话题进行正向引导,提供多元化的育儿模式建议,倡导社会及家庭帮助女性平衡生育和工作压力,推动男性积极分担养育责任。

##### MediaInfo ######
General
Complete name : 爸爸当家.Ba.Ba.Ba.2022.S01E01.Part1.1080p.WEB-DL.H264.AAC-Huawei.mp4
Format : MPEG-4
Format profile : Base Media
Codec ID : isom (isom/iso2/avc1/mp41)
File size : 1.19 GiB
Duration : 1 h 18 min
Overall bit rate mode : Variable
Overall bit rate : 2 176 kb/s
Recorded date : 2022-05-13T10:31:18.8922365+08:00
Writing application : Lavf58.32.104

Video
ID : 1
Format : AVC
Format/Info : Advanced Video Codec
Format profile : High@L4
Format settings : CABAC / 4 Ref Frames
Format settings, CABAC : Yes
Format settings, Reference frames : 4 frames
Codec ID : avc1
Codec ID/Info : Advanced Video Coding
Duration : 1 h 18 min
Bit rate : 1 980 kb/s
Width : 1 920 pixels
Height : 1 080 pixels
Display aspect ratio : 16:9
Frame rate mode : Constant
Frame rate : 25.000 FPS
Color space : YUV
Chroma subsampling : 4:2:0
Bit depth : 8 bits
Scan type : Progressive
Bits/(Pixel*Frame) : 0.038
Stream size : 1.08 GiB (91%)
Writing library : www.mgtv.com codec
Codec configuration box : avcC

Audio
ID : 2
Format : AAC LC
Format/Info : Advanced Audio Codec Low Complexity
Codec ID : mp4a-40-2
Duration : 1 h 18 min
Bit rate mode : Variable
Bit rate : 192 kb/s
Maximum bit rate : 206 kb/s
Channel(s) : 2 channels
Channel layout : L R
Sampling rate : 44.1 kHz
Frame rate : 43.066 FPS (1024 SPF)
Compression mode : Lossy
Stream size : 106 MiB (9%)
Default : Yes
Alternate group : 1

部分资源为软字幕,移动端推荐播放器:MxPlayer,nPlayer,infuse ,其他播放器请自行尝试。

部分资源为软字幕,电脑端推荐播放器:PotPlayer,完美解码,KMPLAYER,其他播放器请自行尝试。


相关标签: # 爸爸 # 当家 # 字幕