首页 世界内容详情

[2022] [大陆] [动画] [WEB-1080P] 斗破苍穹 年番[第59集][国语配音/中文字幕].Fights.Break.Sphere.S01.2022.1080p.WEB-DL.H264.AAC-SeeW

2023-08-28 6 lxacg

[2022] [大陆] [动画] [WEB-1080P] 斗破苍穹 年番[第59集][国语配音/中文字幕].Fights.Break.Sphere.S01.2022.1080p.WEB-DL.H264.AAC-SeeW

-->

完整标题:斗破苍穹 年番[第59集][国语配音/中文字幕].Fights.Break.Sphere.S01.2022.1080p.WEB-DL.H264.AAC-SeeWEB 0.41GB



◎标  题 斗破苍穹 年番
◎年  代 2022
◎产  地 中国大陆
◎类  别 动画 / 奇幻 / 冒险
◎语  言 汉语普通话
◎IMDb链接 https://www.imdb.com/title//
◎豆瓣评分 6.9/10 (12328人评价)
◎豆瓣链接 https://movie.douban.com/subject/35560094/
◎编  剧 天蚕土豆 Hu Li
      袁洁 Jie Yuan
◎演  员 陈奕雯 Yiwen Chen
      黑石稔 Yuxuan Liu
      郭鸿博 Hongbo Guo
      王宇航 Yuhang Wang
      赵洋 Yang Zhao
      刘以嘉 Yijia Liu
      曹真 Zhen Cao
      海帆 Fang Hai
      筱筝 Xiaozheng
      袁国庆 Guoqing Yuan
      柯暮卿 Muqing Ke
      戴海嘉 Haijia Dai
      吕书君 Shujun Lv
      小忻 Xin Xiao
      沈达威 Dawei Shen
      孙晔 Ye Sun
      刘垚 Yao Liu
      谢添天 Tiantian Xie
      符冲 Chong Fu
      鹏小胖 Pengfei Zhang
      杜晴晴 Qingqing Du
      许棕哲 Zongzhe Xu

◎简  介
    三年之约后,萧炎终于在迦南学院见到了薰儿,此后他广交挚友并成立磐门;为继续提升实力以三上云岚宗为父复仇,他以身犯险深入天焚炼气塔吞噬陨落心炎……

##### MediaInfo ######
General
Complete name : 斗破苍穹.年番.Fights.Break.Sphere.S01E59.2022.1080p.WEB-DL.H264.AAC-SeeWEB.mp4
Format : MPEG-4
Format profile : Base Media
Codec ID : isom (isom/iso2/avc1/mp41)
File size : 414 MiB
Duration : 21 min 13 s
Overall bit rate : 2 727 kb/s
Writing application : OurTV Multimedia Platform

Video
ID : 1
Format : AVC
Format/Info : Advanced Video Codec
Format profile : High@L4
Format settings : CABAC / 4 Ref Frames
Format settings, CABAC : Yes
Format settings, Reference frames : 4 frames
Codec ID : avc1
Codec ID/Info : Advanced Video Coding
Duration : 21 min 12 s
Bit rate : 2 628 kb/s
Width : 1 920 pixels
Height : 804 pixels
Display aspect ratio : 2.40:1
Frame rate mode : Variable
Frame rate : 25.000 FPS
Minimum frame rate : 24.993 FPS
Maximum frame rate : 25.007 FPS
Color space : YUV
Chroma subsampling : 4:2:0
Bit depth : 8 bits
Scan type : Progressive
Bits/(Pixel*Frame) : 0.068
Stream size : 399 MiB (96%)
Color range : Limited
Color primaries : BT.709
Transfer characteristics : BT.709
Matrix coefficients : BT.709
Codec configuration box : avcC

Audio
ID : 2
Format : AAC LC
Format/Info : Advanced Audio Codec Low Complexity
Codec ID : mp4a-40-2
Duration : 21 min 13 s
Bit rate mode : Constant
Bit rate : 93.4 kb/s
Channel(s) : 2 channels
Channel layout : L R
Sampling rate : 48.0 kHz
Frame rate : 46.875 FPS (1024 SPF)
Compression mode : Lossy
Stream size : 14.2 MiB (3%)
Default : Yes
Alternate group : 1

部分资源为软字幕,移动端推荐播放器:MxPlayer,nPlayer,infuse ,其他播放器请自行尝试。

部分资源为软字幕,电脑端推荐播放器:PotPlayer,完美解码,KMPLAYER,其他播放器请自行尝试。


相关标签: # 苍穹 # 字幕 # 播放器