首页 世界内容详情

[2023] [日本] [动画] [WEB-1080P] 莱莎的炼金工房 ~常暗女王与秘密藏身处~[第09集][中文字幕].Atelier.Ryza.2023.S01.1080p.Baha.WEB-DL.x264.AA

2023-08-28 8 lxacg

[2023] [日本] [动画] [WEB-1080P] 莱莎的炼金工房 ~常暗女王与秘密藏身处~[第09集][中文字幕].Atelier.Ryza.2023.S01.1080p.Baha.WEB-DL.x264.AA

-->

完整标题:莱莎的炼金工房 ~常暗女王与秘密藏身处~[第09集][中文字幕].Atelier.Ryza.2023.S01.1080p.Baha.WEB-DL.x264.AAC-Huawei 0.45GB



◎标  题 莱莎的炼金工房 ~常暗女王与秘密藏身处~
◎译  名 莱莎的炼金工房 动画版
◎片  名 ライザのアトリエ 〜常闇の女王と秘密の隠れ家〜
◎年  代 2023
◎产  地 日本
◎类  别 动画
◎语  言 日语
◎IMDb链接 https://www.imdb.com/title//
◎豆瓣评分 6.5/10 (142人评价)
◎豆瓣链接 https://movie.douban.com/subject/36281626/
◎导  演 楪エマ Emma Yuzuriha
◎编  剧 高桥弥七郎 Yashichiro Takahashi
◎演  员 野口百合 Yuri Noguchi
      大和田仁美 Hitomi Ohwada
      寺岛拓笃 Takuma Terashima
      近藤唯 Kondou Yui
      野岛裕史 Hirofumi Nojima
      照井春佳 Haruka Terui

◎简  介
    『莱莎的炼金工房』动画化企划进行中

##### MediaInfo ######
General
Complete name : Atelier.Ryza.2023.S01E09.1080p.Baha.WEB-DL.x264.AAC-Huawei.mp4
Format : MPEG-4
Format profile : Base Media
Codec ID : isom (isom/iso2/avc1/mp41)
File size : 463 MiB
Duration : 24 min 5 s
Overall bit rate : 2 689 kb/s
Writing application : Lavf59.34.101

Video
ID : 1
Format : AVC
Format/Info : Advanced Video Codec
Format profile : High@L5
Format settings : CABAC / 4 Ref Frames
Format settings, CABAC : Yes
Format settings, Reference frames : 4 frames
Codec ID : avc1
Codec ID/Info : Advanced Video Coding
Duration : 24 min 5 s
Source duration : 24 min 5 s
Bit rate : 2 371 kb/s
Width : 1 920 pixels
Height : 1 080 pixels
Display aspect ratio : 16:9
Frame rate mode : Variable
Frame rate : 23.976 (24000/1001) FPS
Minimum frame rate : 23.974 FPS
Maximum frame rate : 23.981 FPS
Color space : YUV
Chroma subsampling : 4:2:0
Bit depth : 8 bits
Scan type : Progressive
Bits/(Pixel*Frame) : 0.048
Stream size : 408 MiB (88%)
Source stream size : 408 MiB (88%)
Writing library : x264 core 161 r3018 db0d417
Encoding settings : cabac=1 / ref=4 / deblock=1:-1:-1 / analyse=0x3:0x113 / me=umh / subme=9 / psy=1 / psy_rd=1.00:0.00 / mixed_ref=1 / me_range=16 / chroma_me=1 / trellis=2 / 8x8dct=1 / cqm=0 / deadzone=21,11 / fast_pskip=1 / chroma_qp_offset=-2 / threads=24 / lookahead_threads=2 / sliced_threads=0 / nr=0 / decimate=1 / interlaced=0 / bluray_compat=0 / constrained_intra=0 / bframes=8 / b_pyramid=2 / b_adapt=1 / b_bias=0 / direct=3 / weightb=1 / open_gop=0 / weightp=2 / keyint=250 / keyint_min=23 / scenecut=40 / intra_refresh=0 / rc_lookahead=50 / rc=crf / mbtree=1 / crf=21.0 / qcomp=0.60 / qpmin=0 / qpmax=69 / qpstep=4 / vbv_maxrate=12000 / vbv_bufsize=80000 / crf_max=0.0 / nal_hrd=none / filler=0 / ip_ratio=1.40 / aq=3:1.00
mdhd_Duration : 1445319
Codec configuration box : avcC

Audio
ID : 2
Format : AAC LC
Format/Info : Advanced Audio Codec Low Complexity
Codec ID : mp4a-40-2
Duration : 24 min 5 s
Bit rate mode : Constant
Bit rate : 312 kb/s
Channel(s) : 2 channels
Channel layout : L R
Sampling rate : 48.0 kHz
Frame rate : 46.875 FPS (1024 SPF)
Compression mode : Lossy
Stream size : 53.8 MiB (12%)
Default : Yes
Alternate group : 1

部分资源为软字幕,移动端推荐播放器:MxPlayer,nPlayer,infuse ,其他播放器请自行尝试。

部分资源为软字幕,电脑端推荐播放器:PotPlayer,完美解码,KMPLAYER,其他播放器请自行尝试。


相关标签: # 炼金 # 工房 # 藏身处 # 女王