首页 二次世界内容详情

宅宅导航官网,二次元下午茶官网首页_[MagicStar] 命运警察 / 運命警察 EP06 [WEBDL] [1080p] [AMZN]【生】

2022-08-25 4 lxacg

HD 1080p from Prime Video.
Use CBR bitrate mode.

We are planning to upload all prime video japan Dramas and Movies, we need your Support!

Support Us

Ali (Zhifubao / QR code): https://i.ibb.co/FWV2ggm/1660626347125.png

General Unique ID                      : 59311785177752141732201917279678339113 (0x2C9F08C8BAC29AA1D1EFEBAA094D9829) Complete name                  : Unmei.Keisatsu.EP06.1080p.AMZN.WEB-DL.DDP2.0.H.264-MagicStar.mkv Format                         : Matroska Format version                 : Version 4 File size                      : 1.59 GiB Duration                       : 23 min 14 s Overall bit rate mode          : Constant Overall bit rate               : 9 801 kb/s Encoded date                   : UTC 2022-08-24 23:28:42 Writing application            : mkvmerge v50.0.0 ('Awakenings') 64-bit Writing library                : libebml v1.4.0 + libmatroska v1.6.2 Cover                          : Yes Attachments                    : cover.png  Video ID                             : 1 Format                         : AVC Format/Info                    : Advanced Video Codec Format profile                 : [email protected] Format settings                : CABAC / 4 Ref Frames Format settings, CABAC         : Yes Format settings, Reference fra : 4 frames Codec ID                       : V_MPEG4/ISO/AVC Duration                       : 23 min 14 s Bit rate mode                  : Constant Bit rate                       : 10 000 kb/s Width                          : 1 920 pixels Height                         : 1 080 pixels Display aspect ratio           : 16:9 Frame rate mode                : Constant Frame rate                     : 23.976 (24000/1001) FPS Color space                    : YUV Chroma subsampling             : 4:2:0 Bit depth                      : 8 bits Scan type                      : Progressive Bits/(Pixel*Frame)             : 0.201 Stream size                    : 1.55 GiB (98%) Default                        : Yes Forced                         : No Color range                    : Limited Color primaries                : BT.709 Transfer characteristics       : BT.709 Matrix coefficients            : BT.709  Audio ID                             : 2 Format                         : E-AC-3 Format/Info                    : Enhanced AC-3 Commercial name                : Dolby Digital Plus Codec ID                       : A_EAC3 Duration                       : 23 min 14 s Bit rate mode                  : Constant Bit rate                       : 224 kb/s Channel(s)                     : 2 channels Channel layout                 : L R Sampling rate                  : 48.0 kHz Frame rate                     : 31.250 FPS (1536 SPF) Compression mode               : Lossy Stream size                    : 37.2 MiB (2%) Language                       : Japanese Service kind                   : Complete Main Default                        : Yes Forced                         : No

[MagicStar] 刑警7人 第八季 / 刑事7人 Season8 EP07 [WEBDL] [1080p]【生】【附日字】

相关标签: # 1080p # AMZN # MagicStar # Unmei Keisatsu EP06 # WEBDL # 命运警察 # 運命警察 EP06