首页 世界内容详情

[2023] [大陆] [剧情] [WEB-4K] 她的城[第27-28集][国语音轨/简繁英字幕].Her.World.S01.2023.2160p.WEB-DL.H265.DDP5.1-SeeWEB 2.30

2023-08-31 4 lxacg

[2023] [大陆] [剧情] [WEB-4K] 她的城[第27-28集][国语音轨/简繁英字幕].Her.World.S01.2023.2160p.WEB-DL.H265.DDP5.1-SeeWEB 2.30

-->

完整标题:她的城[第27-28集][国语音轨/简繁英字幕].Her.World.S01.2023.2160p.WEB-DL.H265.DDP5.1-SeeWEB 2.30GB



◎标  题 她的城
◎译  名 Her World
◎年  代 2023
◎产  地 中国大陆
◎类  别 剧情
◎语  言 汉语普通话
◎IMDb链接 https://www.imdb.com/title/tt28658440/
◎豆瓣链接 https://movie.douban.com/subject/35496387/
◎导  演 温德光 De-Guang Wen
◎演  员 高露 Lu Gao
      张含韵 Baby Zhang
      王龙正 Longzheng Wang
      张静初 Jingchu Zhang
      王耀庆 David Wang
      官鸿 Darren Chen
      马汉杰 Hanjie Ma

◎简  介
    精准定位"她"时代的都市女性话题剧 , 邀请国内一线30十女星加盟。 金句频出 , 人设飒爽 , 美剧节奏、 情节话题热点不断 , 谈婚姻、 谈事业、 谈关于轻熟龄女性的爱恨情仇。

##### MediaInfo ######
General
Complete name : 她的城.Her.World.S01E27.2023.2160p.WEB-DL.H265.DDP5.1-SeeWEB.mp4
Format : MPEG-4
Format profile : Base Media
Codec ID : isom (isom/iso2/mp41)
File size : 1.18 GiB
Duration : 38 min 25 s
Overall bit rate mode : Variable
Overall bit rate : 4 404 kb/s
Writing application : OurTV Multimedia Platform

Video
ID : 1
Format : HEVC
Format/Info : High Efficiency Video Coding
Format profile : Main@L5@Main
Codec ID : hev1
Codec ID/Info : High Efficiency Video Coding
Duration : 38 min 25 s
Bit rate : 3 948 kb/s
Width : 3 840 pixels
Height : 2 160 pixels
Display aspect ratio : 16:9
Frame rate mode : Constant
Frame rate : 25.000 FPS
Color space : YUV
Chroma subsampling : 4:2:0
Bit depth : 8 bits
Bits/(Pixel*Frame) : 0.019
Stream size : 1.06 GiB (90%)
Codec configuration box : hvcC

Audio #1
ID : 2
Format : E-AC-3
Format/Info : Enhanced AC-3
Commercial name : Dolby Digital Plus
Codec ID : ec-3
Duration : 38 min 25 s
Bit rate mode : Constant
Bit rate : 256 kb/s
Channel(s) : 6 channels
Channel layout : L R C LFE Ls Rs
Sampling rate : 48.0 kHz
Frame rate : 31.250 FPS (1536 SPF)
Compression mode : Lossy
Stream size : 70.4 MiB (6%)
Title : 国语·杜比环绕声
Language : Chinese
Service kind : Complete Main
Default : Yes
Alternate group : 1

Audio #2
ID : 3
Format : AAC LC
Format/Info : Advanced Audio Codec Low Complexity
Codec ID : mp4a-40-2
Duration : 38 min 25 s
Bit rate mode : Constant
Bit rate : 192 kb/s
Channel(s) : 2 channels
Channel layout : L R
Sampling rate : 44.1 kHz
Frame rate : 43.066 FPS (1024 SPF)
Compression mode : Lossy
Stream size : 52.8 MiB (4%)
Title : 国语
Language : Chinese
Default : No
Alternate group : 1

Text #1
ID : 4
Format : Timed Text
Muxing mode : sbtl
Codec ID : tx3g
Duration : 36 min 3 s
Bit rate mode : Variable
Bit rate : 57 b/s
Frame rate : 0.542 FPS
Stream size : 15.0 KiB (0%)
Title : 简体中文
Language : Chinese
Default : Yes
Forced : No
Alternate group : 3

Text #2
ID : 5
Format : Timed Text
Muxing mode : sbtl
Codec ID : tx3g
Duration : 36 min 3 s
Bit rate mode : Variable
Bit rate : 57 b/s
Frame rate : 0.542 FPS
Stream size : 15.0 KiB (0%)
Title : 繁体中文
Language : Chinese
Default : No
Forced : No
Alternate group : 3

Text #3
ID : 6
Format : Timed Text
Muxing mode : sbtl
Codec ID : tx3g
Duration : 36 min 3 s
Bit rate mode : Variable
Bit rate : 69 b/s
Frame rate : 0.592 FPS
Stream size : 18.2 KiB (0%)
Title : 英文
Language : English
Default : No
Forced : No
Alternate group : 3

Text #4
ID : 7
Format : Timed Text
Muxing mode : sbtl
Codec ID : tx3g
Duration : 36 min 3 s
Bit rate mode : Variable
Bit rate : 70 b/s
Frame rate : 0.542 FPS
Stream size : 18.6 KiB (0%)
Title : 韩文
Language : Korean
Default : No
Forced : No
Alternate group : 3

Text #5
ID : 8
Format : Timed Text
Muxing mode : sbtl
Codec ID : tx3g
Duration : 36 min 3 s
Bit rate mode : Variable
Bit rate : 167 b/s
Frame rate : 0.592 FPS
Stream size : 44.0 KiB (0%)
Title : 泰文
Language : Thai
Default : No
Forced : No
Alternate group : 3

Text #6
ID : 9
Format : Timed Text
Muxing mode : sbtl
Codec ID : tx3g
Duration : 36 min 3 s
Bit rate mode : Variable
Bit rate : 69 b/s
Frame rate : 0.542 FPS
Stream size : 18.2 KiB (0%)
Title : 马来文
Language : Malay
Default : No
Forced : No
Alternate group : 3

Text #7
ID : 10
Format : Timed Text
Muxing mode : sbtl
Codec ID : tx3g
Duration : 36 min 3 s
Bit rate mode : Variable
Bit rate : 89 b/s
Frame rate : 0.592 FPS
Stream size : 23.6 KiB (0%)
Title : 越南文
Language : Vietnamese
Default : No
Forced : No
Alternate group : 3

Text #8
ID : 11
Format : Timed Text
Muxing mode : sbtl
Codec ID : tx3g
Duration : 36 min 3 s
Bit rate mode : Variable
Bit rate : 67 b/s
Frame rate : 0.542 FPS
Stream size : 17.8 KiB (0%)
Title : 印尼文
Language : Indonesian
Default : No
Forced : No
Alternate group : 3

Text #9
ID : 12
Format : Timed Text
Muxing mode : sbtl
Codec ID : tx3g
Duration : 36 min 3 s
Bit rate mode : Variable
Bit rate : 65 b/s
Frame rate : 0.542 FPS
Stream size : 17.0 KiB (0%)
Title : 西班牙文
Language : Spanish
Default : No
Forced : No
Alternate group : 3

Text #10
ID : 13
Format : Timed Text
Muxing mode : sbtl
Codec ID : tx3g
Duration : 36 min 3 s
Bit rate mode : Variable
Bit rate : 82 b/s
Frame rate : 0.542 FPS
Stream size : 21.7 KiB (0%)
Title : 阿拉伯文
Language : Arabic
Default : No
Forced : No
Alternate group : 3

Text #11
ID : 14
Format : Timed Text
Muxing mode : sbtl
Codec ID : tx3g
Duration : 36 min 3 s
Bit rate mode : Variable
Bit rate : 84 b/s
Frame rate : 0.542 FPS
Stream size : 22.1 KiB (0%)
Title : 日文
Language : Japanese
Default : No
Forced : No
Alternate group : 3

点击图片可查看大图

软字幕无法在截图上展现,HDR版本/杜比视界版本截图会出现颜色异常,请使用支持的设备播放!

部分资源为软字幕,移动端推荐播放器:MxPlayer,nPlayer,infuse ,其他播放器请自行尝试。

部分资源为软字幕,电脑端推荐播放器:PotPlayer,完美解码,KMPLAYER,其他播放器请自行尝试。


相关标签: # mode