首页 世界内容详情

[2023] [大陆] [剧情] [WEB-4K] 鹊刀门传奇[杜比视界版本][第25-28集][国语配音/中文字幕].Legend.of.the.Undercover.Chef.S01.2023.2160p.W

2023-08-31 4 lxacg

[2023] [大陆] [剧情] [WEB-4K] 鹊刀门传奇[杜比视界版本][第25-28集][国语配音/中文字幕].Legend.of.the.Undercover.Chef.S01.2023.2160p.W

-->

完整标题:鹊刀门传奇[杜比视界版本][第25-28集][国语配音/中文字幕].Legend.of.the.Undercover.Chef.S01.2023.2160p.WEB-DL.H265.DV.DDP2.0-SeeWEB 11.73GB



◎标  题 鹊刀门传奇
◎译  名 象牙门传奇
◎年  代 2023
◎产  地 中国大陆
◎类  别 剧情 / 喜剧 / 动作 / 武侠 / 古装
◎语  言 汉语普通话
◎IMDb链接 https://www.imdb.com/title/tt28658451/
◎豆瓣链接 https://movie.douban.com/subject/35936087/
◎导  演 唐铁军 Tiejun Tang
      吴迪 Dillon Wu
◎编  剧 彭旭 Xu Peng
      陈薪竹 Xinzhu Chen
      金壳贝贝
      孙瑜 Yu Sun
      赵明畅 Mingchang Zhao
      潘疼疼 Tengteng Pan
      高冰 Bing Gao
      六耳圆圆
      倪运博 Yunbo Ni
◎演  员 赵本山 Benshan Zhao
      宋小宝 Xiaobao Song
      宋晓峰 Xiaofeng Song
      文松 Song Wen
      程野 Ye Cheng
      杨树林 Bing Yang
      田娃 Wa Tian
      王小虎 Xiaohu Wang
      唐鉴军 Jianjun Tang
      葛珊珊 Shanshan Ge
      历晓贺 Xiaohe Li
      毕畅 Chang Bi
      赵海燕 Haiyan Zhao
      蒋依杉 Yishan Jiang
      张小英 Xiaoying Zhang

◎简  介
    某朝末年,倭乱四起,宦官专权,东厂曹公公勾结倭寇,残害中原武林,意欲谋反。长海对外身份是鹊刀门掌门,实则是秘密抗倭组织成员,除了剿灭倭寇,另一项重要任务就是查出勾结倭寇的朝中汉奸。而同时曹公公也发现有反对自己的武林人士存在,暗中派人监视武林各门派的一举一动。因要掩人耳目,并同时进行秘密任务,西门长海(赵本山 饰)找到远在家乡的孪生兄弟西门长在(赵本山 饰),让他冒充自己。 虽是孪生兄弟,西门长海和西门长在兄弟俩的个性和人生道路完全不同,弟弟是英雄虎胆的一代大侠,哥哥则是胆小懦弱的市井伙夫。面对弟弟的请求,胆小怕事的西门长在一万个不答应,奈何顶住了弟弟长海的威逼利诱,却顶不住弟弟许诺给他找个“老伴”的色诱,于是半推半就的同意冒名顶替。就这样,西门长在稀里糊涂的从一个掌勺摇身一变成为掌门,进入了光怪陆离的武侠世界。   西门长在来到人生地不熟的鹊刀门,想要冒充弟弟,首先遇到的第一关,就是要骗过弟弟长海身边的几位亲人:呆傻木讷的大徒弟郝盟(程野 饰)和性如烈火的叶四娘(葛珊珊 饰),鲁莽冲动的二徒弟赵德柱(宋晓峰 饰),当然最难的是弟弟的女儿西门柔(历晓贺 饰)。西门长在本来想低调蒙混过关,不料树欲静却风不止,各自风波接踵而来,天池帮帮主高大毛(宋小宝 饰),五毒教教主等人纷纷找上门来,最危险的是,西门长在引起了东厂曹公公(杨树林 饰)的注意和怀疑!

##### MediaInfo ######
General
Complete name : 鹊刀门传奇.Legend.of.the.Undercover.Chef.S01E25.2023.2160p.WEB-DL.H265.DV.DDP2.0-SeeWEB.mp4
Format : MPEG-4
Format profile : Base Media / Version 2
Codec ID : mp42 (mp42/iso6/isom/msdh/dby1)
File size : 2.77 GiB
Duration : 27 min 0 s
Overall bit rate mode : Variable
Overall bit rate : 14.7 Mb/s
Encoded date : UTC 2023-08-28 07:10:02
Tagged date : UTC 2023-08-28 07:10:02

Video
ID : 1
Format : HEVC
Format/Info : High Efficiency Video Coding
Format profile : Main 10@L5@Main
HDR format : Dolby Vision, Version 1.0, dvhe.05.07, BL+RPU
Codec ID : dvhe
Codec ID/Info : High Efficiency Video Coding with Dolby Vision
Duration : 26 min 59 s
Bit rate : 14.2 Mb/s
Width : 3 840 pixels
Height : 2 160 pixels
Display aspect ratio : 16:9
Frame rate mode : Constant
Frame rate : 25.000 FPS
Color space : YUV
Chroma subsampling : 4:2:0
Bit depth : 10 bits
Bits/(Pixel*Frame) : 0.068
Stream size : 2.67 GiB (96%)
Default : Yes
Alternate group : 1
Encoded date : UTC 2023-08-28 07:10:02
Tagged date : UTC 2023-08-28 07:10:02
Color range : Full
Codec configuration box : hvcC+dvcC

Audio #1
ID : 2
Format : E-AC-3
Format/Info : Enhanced AC-3
Commercial name : Dolby Digital Plus
Codec ID : ac-3
Duration : 27 min 0 s
Bit rate mode : Constant
Bit rate : 256 kb/s
Channel(s) : 2 channels
Channel layout : L R
Sampling rate : 48.0 kHz
Frame rate : 31.250 FPS (1536 SPF)
Compression mode : Lossy
Stream size : 49.4 MiB (2%)
Language : Chinese
Service kind : Complete Main
Default : Yes
Alternate group : 2
Encoded date : UTC 2023-08-28 07:10:02
Tagged date : UTC 2023-08-28 07:10:02

Audio #2
ID : 3
Format : AAC LC
Format/Info : Advanced Audio Codec Low Complexity
Codec ID : mp4a-40-2
Duration : 26 min 59 s
Bit rate mode : Variable
Bit rate : 253 kb/s
Maximum bit rate : 258 kb/s
Channel(s) : 2 channels
Channel layout : L R
Sampling rate : 48.0 kHz
Frame rate : 46.875 FPS (1024 SPF)
Compression mode : Lossy
Stream size : 48.9 MiB (2%)
Language : Chinese
Default : No
Alternate group : 2
Encoded date : UTC 2023-08-28 07:10:02
Tagged date : UTC 2023-08-28 07:10:02

部分资源为软字幕,移动端推荐播放器:MxPlayer,nPlayer,infuse ,其他播放器请自行尝试。

部分资源为软字幕,电脑端推荐播放器:PotPlayer,完美解码,KMPLAYER,其他播放器请自行尝试。


相关标签: # 弟弟