首页 世界内容详情

[2023] [大陆] [动画] [WEB-4K] 逆天战纪[全20集][国语配音/中文字幕].The.Rise.of.the.Weak.S01.2023.2160p.WEB-DL.H265.AAC-SeeWEB

2023-08-31 2 lxacg

[2023] [大陆] [动画] [WEB-4K] 逆天战纪[全20集][国语配音/中文字幕].The.Rise.of.the.Weak.S01.2023.2160p.WEB-DL.H265.AAC-SeeWEB

-->

完整标题:逆天战纪[全20集][国语配音/中文字幕].The.Rise.of.the.Weak.S01.2023.2160p.WEB-DL.H265.AAC-SeeWEB 9.36GB



◎标  题 逆天战纪
◎译  名 The Rise of the Weak
◎年  代 2023
◎产  地 中国大陆
◎类  别 动画 / 奇幻 / 冒险
◎语  言 汉语普通话
◎IMDb链接 https://www.imdb.com/title//
◎豆瓣链接 https://movie.douban.com/subject/35634674/
◎演  员 李晓佳 Xiaojia Li

◎简  介
    被称为第一废物的吴燃在一次战斗重伤中偶然激活乾坤之宝圣魂骰子系统,获得了奇异古怪的神骰技能,解救了小师叔,打败了女修仙者霓纱,但是没有想到女修仙者霓纱对他有了爱慕之心。并且要把吴燃抓回宗门。女修仙者霓纱联合白龙王,一同进攻地球城池,想要获得乾坤之宝。最终,吴燃打败了霓纱,守护地球城池。

##### MediaInfo ######
General
Complete name : 逆天战纪.The.Rise.of.the.Weak.S01E01.2023.2160p.WEB-DL.H265.AAC-SeeWEB.mp4
Format : MPEG-4
Format profile : Base Media
Codec ID : isom (isom/iso2/mp41)
File size : 544 MiB
Duration : 13 min 46 s
Overall bit rate : 5 527 kb/s
Writing application : OurTV Multimedia Platform

Video
ID : 1
Format : HEVC
Format/Info : High Efficiency Video Coding
Format profile : [email protected]@Main
Codec ID : hev1
Codec ID/Info : High Efficiency Video Coding
Duration : 13 min 46 s
Bit rate : 5 321 kb/s
Width : 3 840 pixels
Height : 2 160 pixels
Display aspect ratio : 16:9
Frame rate mode : Constant
Frame rate : 25.000 FPS
Color space : YUV
Chroma subsampling : 4:2:0
Bit depth : 8 bits
Bits/(Pixel*Frame) : 0.026
Stream size : 524 MiB (96%)
Color range : Limited
Color primaries : BT.709
Transfer characteristics : BT.709
Matrix coefficients : BT.709
Codec configuration box : hvcC

Audio
ID : 2
Format : AAC LC
Format/Info : Advanced Audio Codec Low Complexity
Codec ID : mp4a-40-2
Duration : 13 min 46 s
Bit rate mode : Constant
Bit rate : 200 kb/s
Channel(s) : 2 channels
Channel layout : L R
Sampling rate : 48.0 kHz
Frame rate : 46.875 FPS (1024 SPF)
Compression mode : Lossy
Stream size : 19.7 MiB (4%)
Default : Yes
Alternate group : 1

部分资源为软字幕,移动端推荐播放器:MxPlayer,nPlayer,infuse ,其他播放器请自行尝试。

部分资源为软字幕,电脑端推荐播放器:PotPlayer,完美解码,KMPLAYER,其他播放器请自行尝试。


相关标签: # 字幕 # 播放器