首页 世界内容详情

[2023] [大陆] [喜剧] [WEB-4K] 燕山派与百花门[第23-24集][国语配音/中文字幕].Love.Forever.Young.S01.2023.2160p.WEB-DL.H265.AAC-Bl

2023-08-29 5 lxacg

[2023] [大陆] [喜剧] [WEB-4K] 燕山派与百花门[第23-24集][国语配音/中文字幕].Love.Forever.Young.S01.2023.2160p.WEB-DL.H265.AAC-Bl

-->

完整标题:燕山派与百花门[第23-24集][国语配音/中文字幕].Love.Forever.Young.S01.2023.2160p.WEB-DL.H265.AAC-BlackTV 2.66GB



◎标  题 燕山派与百花门
◎年  代 2023
◎产  地 中国大陆
◎类  别 喜剧 / 爱情 / 武侠 / 古装
◎语  言 汉语普通话
◎IMDb链接 https://www.imdb.com/title//
◎豆瓣链接 https://movie.douban.com/subject/35198679/
◎导  演 李小江 Xiaojiang Li
◎演  员 方逸伦 Alen Fang
      冯铭潮 Mingchao Feng
      马闻远 Asher Ma
      戴燕妮 Yanni Dai
      刘令姿 Lingzi Liu
      苏晓彤 Xiaotong Su
      汤敏 Min Tang
      刘若谷 Ruogu Liu
      卢卓 Zhuo Lu

◎简  介
    仙气缥缈的燕山有两大门派,山顶的燕山派和山脚的百花门。山上都是汉子,山下都是妹子,两个门派朝夕相处,却因门规严苛而老死不相往来。这都源于两派祖师的前尘恩怨。但没有什么能阻挡年轻人对爱情的向往,于是啼笑皆非的故事从此开始。   如今两派四代弟子中,燕山派大师兄朝行暮颜值、武功都是翘楚,不料却是个“中二”的钢铁直男。他机缘巧合下救了百花门同为“直女”的大师姐月清秋,木头遇冰山,引出一段儿女情长;燕山派二师兄顾玉郞才智高绝,却不能习武。一次行动中,他被百花门二师姐玉玲珑误伤,玉玲珑欣赏他身残志坚,决定保护顾玉郞;人畜无害的燕山派小师弟君未期,在一次比武中被百花门小师妹离一心打伤,他却因此对离一心念念不忘,懵懂的少年男女走上一条打来斗去的感情路。两派年轻弟子们在日渐相处中萌发了感情,不可自拔。   但美好的日子并不长久,危机随之而来。百花门掌门花镜湘早年与燕山派掌门唐宗泽相恋,却因门规所限,最终没能走到一起,二人因爱生恨。花镜湘师妹夏新荷与唐宗泽的师弟成功偷尝禁果,被逐出师门,导致成功郁郁而终。多年后夏新荷神功大成,上山寻仇,两派危在旦夕。   与此同时,燕山派年过百岁的二代师祖羽成仙,也终于找到了救醒沉睡恋人韶华的方法。而韶华,正是百花门的二代掌门。   两派三代人的感情错综复杂,而年轻一代的弟子们也在危机中得到成长,在他们的共同努力下,两派消除隔阂,不再敌对,有情人终成眷属,过上了幸福逍遥的日子。

##### MediaInfo ######
General
Complete name : Love.Forever.Young.S01E23.2023.2160p.WEB-DL.H265.AAC-BlackTV.mp4
Format : MPEG-4
Format profile : Base Media
Codec ID : isom (isom/iso2/mp41)
File size : 1.32 GiB
Duration : 48 min 22 s
Overall bit rate mode : Variable
Overall bit rate : 3 921 kb/s
Writing application : Lavf59.27.100

Video
ID : 1
Format : HEVC
Format/Info : High Efficiency Video Coding
Format profile : Main 10@L5@Main
Codec ID : hev1
Codec ID/Info : High Efficiency Video Coding
Duration : 48 min 22 s
Bit rate : 3 722 kb/s
Width : 3 840 pixels
Height : 2 160 pixels
Display aspect ratio : 16:9
Frame rate mode : Constant
Frame rate : 25.000 FPS
Color space : YUV
Chroma subsampling : 4:2:0
Bit depth : 10 bits
Bits/(Pixel*Frame) : 0.018
Stream size : 1.26 GiB (95%)
Color range : Limited
Color primaries : BT.709
Transfer characteristics : BT.709
Matrix coefficients : BT.709
Codec configuration box : hvcC

Audio
ID : 2
Format : AAC LC
Format/Info : Advanced Audio Codec Low Complexity
Codec ID : mp4a-40-2
Duration : 48 min 22 s
Bit rate mode : Variable
Bit rate : 192 kb/s
Maximum bit rate : 195 kb/s
Channel(s) : 2 channels
Channel layout : L R
Sampling rate : 44.1 kHz
Frame rate : 43.066 FPS (1024 SPF)
Compression mode : Lossy
Stream size : 66.4 MiB (5%)
Default : Yes
Alternate group : 1

部分资源为软字幕,移动端推荐播放器:MxPlayer,nPlayer,infuse ,其他播放器请自行尝试。

部分资源为软字幕,电脑端推荐播放器:PotPlayer,完美解码,KMPLAYER,其他播放器请自行尝试。


相关标签: # 宗泽