首页 世界内容详情

[2023] [大陆] [动作] [WEB-1080P] 冰雪尖刀连[全24集][国语配音/中文字幕].Winter.And.Lion.S01.2023.1080p.WEB-DL.H264.AAC-BlackTV 61

2023-08-29 4 lxacg

[2023] [大陆] [动作] [WEB-1080P] 冰雪尖刀连[全24集][国语配音/中文字幕].Winter.And.Lion.S01.2023.1080p.WEB-DL.H264.AAC-BlackTV 61

-->

完整标题:冰雪尖刀连[全24集][国语配音/中文字幕].Winter.And.Lion.S01.2023.1080p.WEB-DL.H264.AAC-BlackTV 61.93GB



◎标  题 冰雪尖刀连
◎译  名 冬与狮
◎年  代 2023
◎产  地 中国大陆
◎类  别 动作 / 历史 / 战争
◎语  言 汉语普通话
◎IMDb链接 https://www.imdb.com/title/tt28131772/
◎豆瓣链接 https://movie.douban.com/subject/30364877/
◎导  演 高希希 Xixi Gao
◎编  剧 兰晓龙 Xiaolong Lan
      陈琼琼 Qiongqiong Chen
◎演  员 杜淳 Chun Du
      王子奇 Ziqi Wang
      张博 Bo Zhang
      鲁诺 Nuo Lu
      姬他 Ta Ji
      于震 Zhen Yu
      郑伟 Wei Zheng
      于滨 Bin Yu
      薛奇 Qi Xue
      鞠江 Jiang Ju
      李晨 Chen Li
      颖儿 Ying Liu
      陈奕丞 Yicheng Chen
      许鹏 Peng Xu
      邢雨静 Yujing Xing
      庞竞 Jing Pang
      徐心瑭 Rhea

◎简  介
    1950年秋,新中国万象更新。某军第七侦察连连长伍千里回乡省亲。伍家长兄牺牲于淮海战役,尚有老三伍万里,顽劣失教,为害渔寨邻里。千里决定带他走正途当兵,兄弟归营,正赶上大军开拔抗美援朝战场。万里初来乍到,结识一群久经沙场的老兵,个个硬骨头真性情。渡过鸭绿江,适逢朝鲜百年不遇的寒冬。团部下令化整为零、潜伏穿插深入敌后。新兵万里初登战场,成了七连的拖累。万里和七连在一系列艰苦战斗中一起成长。机场大战中,七连识破美军伎俩,拯救整个兵团的同时,与主力部队失散。他们寻主力部队至水门桥。水门桥是能左右朝鲜战局的砝码,仅剩三十余人的七连,必须完成炸桥任务。“钢七连”以伟大的牺牲和强大的革命意志,完成了这个足以彪炳史册的壮举。千里牺牲,万里成长为一名有担当的战士,他将用余生践行对哥哥的承诺,重建“钢七连”。

##### MediaInfo ######
General
Complete name : Winter.And.Lion.S01E01.2023.1080p.WEB-DL.H264.AAC-BlackTV.mp4
Format : MPEG-4
Format profile : Base Media
Codec ID : isom (isom/iso2/avc1/mp41)
File size : 2.58 GiB
Duration : 45 min 24 s
Overall bit rate mode : Constant
Overall bit rate : 8 135 kb/s
Recorded date : 2023-08-12T10:20:29.025+0800
Writing application : Lavf58.32.104

Video
ID : 1
Format : AVC
Format/Info : Advanced Video Codec
Format profile : [email protected]
Format settings : CABAC / 1 Ref Frames
Format settings, CABAC : Yes
Format settings, Reference frames : 1 frame
Format settings, GOP : M=1, N=50
Codec ID : avc1
Codec ID/Info : Advanced Video Coding
Duration : 45 min 24 s
Bit rate mode : Constant
Bit rate : 8 000 kb/s
Width : 1 920 pixels
Height : 1 080 pixels
Display aspect ratio : 16:9
Frame rate mode : Constant
Frame rate : 50.000 FPS
Color space : YUV
Chroma subsampling : 4:2:0
Bit depth : 8 bits
Scan type : Progressive
Bits/(Pixel*Frame) : 0.077
Stream size : 2.54 GiB (98%)
Color range : Limited
Color primaries : BT.709
Matrix coefficients : BT.709
Codec configuration box : avcC

Audio
ID : 2
Format : AAC LC
Format/Info : Advanced Audio Codec Low Complexity
Codec ID : mp4a-40-2
Duration : 45 min 24 s
Bit rate mode : Constant
Bit rate : 125 kb/s
Channel(s) : 2 channels
Channel layout : L R
Sampling rate : 48.0 kHz
Frame rate : 46.875 FPS (1024 SPF)
Compression mode : Lossy
Stream size : 40.7 MiB (2%)
Default : Yes
Alternate group : 1

部分资源为软字幕,移动端推荐播放器:MxPlayer,nPlayer,infuse ,其他播放器请自行尝试。

部分资源为软字幕,电脑端推荐播放器:PotPlayer,完美解码,KMPLAYER,其他播放器请自行尝试。


相关标签: # 万里