首页 世界内容详情

[2023] [大陆] [爱情] [WEB-4K] 七时吉祥[第33-34集][国语音轨/简繁英字幕].Love.You.Seven.Times.S01.2023.2160p.IQ.WEB-DL.H265.DDP

2023-08-29 7 lxacg

[2023] [大陆] [爱情] [WEB-4K] 七时吉祥[第33-34集][国语音轨/简繁英字幕].Love.You.Seven.Times.S01.2023.2160p.IQ.WEB-DL.H265.DDP

-->

完整标题:七时吉祥[第33-34集][国语音轨/简繁英字幕].Love.You.Seven.Times.S01.2023.2160p.IQ.WEB-DL.H265.DDP5.1-BlackTV 2.84GB



◎标  题 七时吉祥
◎译  名 一时冲动,七世吉祥 / 一时冲动,七世不祥 / 吉祥诀 / Love You Seven Times
◎年  代 2023
◎产  地 中国大陆
◎类  别 爱情 / 奇幻 / 古装
◎语  言 汉语普通话
◎IMDb评分 8.7/10 (29人评价)
◎IMDb链接 https://www.imdb.com/title/tt27488151/
◎豆瓣链接 https://movie.douban.com/subject/35161396/
◎导  演 李南 Nan Li
      杜林 Jason Du
◎编  剧 左煜 Yu Zuo
      李丽莎 Lisa Li
      丁娅 Ya Ding
      缪文静 Wenjing Miu
      简暗
      李志敏 Zhimin Li
      徐弘 Hong Xu
      九鹭非香
◎演  员 杨超越 Chaoyue Yang
      丁禹兮 Yuxi Ding
      杨皓宇 Haoyu Yang
      董璇 Xuan Dong
      海陆 Lu Hai
      郑国霖 Guolin Zheng
      于波 Bo Yu
      合文俊 Wenjun He
      杨笠 Li Yang
      杨蒙恩 Meng'en Yang
      卢昱晓 Yuxiao Lu
      张晓晨 Xiaochen Zhang
      陈哚伊 Duoyi Chen
      徐崴罗 Weiluo Xu
      张赫 He Zhang
      刘泽宇 Zeyu Liu
      朱翔 Xiang Zhu
      冯雪雅 Xueya feng
      魏劲松 Jinsong Wei
      雷鹏宇 Pengyu Lei
      许占伟 Zhanwei Xu
      宋佩泽 Peize Song
      张皓承 Haocheng Zhang
      赵垣又 Yuanyou Zhao
      巫蛊悠悠 Haojia Li
      杨凯祺 Kaiqi Yang
      任京浩 Ren Jinghao
      刘曼 Man Liu
      李楠 Nan Li
      高旭东 Xudong Gao
      张树彬 Shubin Zhang
      陈啟刚 Qigang Chen
      孙志诚 Zhicheng Sun
      王瑜 Yu Wang
      魏小硕 Xiaoshuo Wei
      史泽鲲 Zekun Shi
      徐佳琦 Jiaqi Xu
      蒋明希 Mingxi Jiang
      李曼
      李博 Bo Li
      张雪菡 Xuehan Zhang
      星择 Ze Xing
      肖添仁 Tianren Xiao
      林柏叡 Charles
      翟向阳
      周小川 Xiaochuan Zhou
      金鑫 Xin Jin
      姜熙饶 Jiang Xi Rao
      张博之 Bozhi Zhang
      蒋冰 Bing Jiang
      孟召重 Zhaozhong Meng
      周可心
      刘泽庭 Chake Lau
      李昂 Ang Li
      葛秋谷 Qiugu Ge
      李宇皓 Yuhao Li
      袁成杰 Chenjie Yuan
      张垒 Lei Zhang
      王晓云子

◎简  介
    剧集改编自作家九鹭非香小说《一时冲动,七世不祥》,讲述了姻缘阁小仙祥云(杨超越 饰)和仙君初空(丁禹兮 饰)二人阴差阳错牵系上古红线,成为彼此绑定的历劫仙侣,牵绊出一系列浪漫欢乐又跌宕纠缠的七世情缘故事。

##### MediaInfo ######
General
Unique ID : 269673684356646002125370330203152583787 (0xCAE1432C180A46E57C6DD9F3EF960C6B)
Complete name : Love.You.Seven.Times.S01E33.2023.2160p.IQ.WEB-DL.H265.DDP5.1-BlackTV.mkv
Format : Matroska
Format version : Version 4
File size : 1.42 GiB
Duration : 42 min 38 s
Overall bit rate : 4 779 kb/s
Encoded date : UTC 2023-08-28 11:50:07
Writing application : mkvmerge v76.0 ('Celebration') 64-bit
Writing library : libebml v1.4.4 + libmatroska v1.7.1 / Lavf57.83.100

Video
ID : 1
Format : HEVC
Format/Info : High Efficiency Video Coding
Format profile : Main@L5@Main
Codec ID : V_MPEGH/ISO/HEVC
Duration : 42 min 38 s
Bit rate : 4 136 kb/s
Width : 3 840 pixels
Height : 2 160 pixels
Display aspect ratio : 16:9
Frame rate mode : Constant
Frame rate : 25.000 FPS
Color space : YUV
Chroma subsampling : 4:2:0
Bit depth : 8 bits
Bits/(Pixel*Frame) : 0.020
Stream size : 1.23 GiB (87%)
Language : Chinese
Default : Yes
Forced : No

Audio #1
ID : 2
Format : E-AC-3 JOC
Format/Info : Enhanced AC-3 with Joint Object Coding
Commercial name : Dolby Digital Plus with Dolby Atmos
Codec ID : A_EAC3
Duration : 42 min 38 s
Bit rate mode : Constant
Bit rate : 448 kb/s
Channel(s) : 6 channels
Channel layout : L R C LFE Ls Rs
Sampling rate : 48.0 kHz
Frame rate : 31.250 FPS (1536 SPF)
Compression mode : Lossy
Delay relative to video : -59 ms
Stream size : 137 MiB (9%)
Title : Mandarin [DDP5.1]
Language : Chinese
Service kind : Complete Main
Default : Yes
Forced : No
Complexity index : 16
Number of dynamic objects : 15
Bed channel count : 1 channel
Bed channel configuration : LFE

Audio #2
ID : 3
Format : AAC LC
Format/Info : Advanced Audio Codec Low Complexity
Codec ID : A_AAC-2
Duration : 42 min 38 s
Bit rate : 192 kb/s
Channel(s) : 2 channels
Channel layout : L R
Sampling rate : 44.1 kHz
Frame rate : 43.066 FPS (1024 SPF)
Compression mode : Lossy
Delay relative to video : -59 ms
Stream size : 58.5 MiB (4%)
Title : Mandarin [AAC2.0]
Language : Chinese
Default : No
Forced : No

Text #1
ID : 4
Format : UTF-8
Codec ID : S_TEXT/UTF8
Codec ID/Info : UTF-8 Plain Text
Duration : 36 min 45 s
Bit rate : 44 b/s
Frame rate : 0.302 FPS
Count of elements : 667
Stream size : 12.0 KiB (0%)
Title : Simplified Chinese
Language : Chinese
Default : Yes
Forced : No

Text #2
ID : 5
Format : UTF-8
Codec ID : S_TEXT/UTF8
Codec ID/Info : UTF-8 Plain Text
Duration : 36 min 45 s
Bit rate : 44 b/s
Frame rate : 0.302 FPS
Count of elements : 667
Stream size : 12.0 KiB (0%)
Title : Traditional Chinese
Language : Chinese
Default : No
Forced : No

Text #3
ID : 6
Format : UTF-8
Codec ID : S_TEXT/UTF8
Codec ID/Info : UTF-8 Plain Text
Duration : 38 min 54 s
Bit rate : 52 b/s
Frame rate : 0.290 FPS
Count of elements : 677
Stream size : 15.0 KiB (0%)
Title : English
Language : English
Default : No
Forced : No

部分资源为软字幕,移动端推荐播放器:MxPlayer,nPlayer,infuse ,其他播放器请自行尝试。

部分资源为软字幕,电脑端推荐播放器:PotPlayer,完美解码,KMPLAYER,其他播放器请自行尝试。