首页 世界内容详情

[2023] [大陆] [剧情] [WEB-4K] 一路朝阳[高码版][第28-29集][国语配音/中文字幕].Sunrise.S01.2023.2160p.HQ.WEB-DL.H265.AAC-BlackTV

2023-08-29 4 lxacg

[2023] [大陆] [剧情] [WEB-4K] 一路朝阳[高码版][第28-29集][国语配音/中文字幕].Sunrise.S01.2023.2160p.HQ.WEB-DL.H265.AAC-BlackTV

-->

完整标题:一路朝阳[高码版][第28-29集][国语配音/中文字幕].Sunrise.S01.2023.2160p.HQ.WEB-DL.H265.AAC-BlackTV 12.81GB



◎标  题 一路朝阳
◎译  名 大城小室
◎年  代 2023
◎产  地 中国大陆
◎类  别 剧情 / 爱情
◎语  言 汉语普通话
◎IMDb链接 https://www.imdb.com/title/tt28639328/
◎豆瓣链接 https://movie.douban.com/subject/35173643/
◎导  演 曹凯
◎编  剧 蓝小汐 Xiaoxi Lan
      姜立涵 Lihan Jiang
◎演  员 李兰迪 Landy Li
      王阳 Wayne Wang
      王菊 Ju Wang
      高叶 Ye Gao
      徐绍瑛 Shaoying Xu
      张艺上 Yishang Zhang
      王皓 Hao Wang
      王宥钧 Youjun Wang
      任彬 Bin Ren
      刘恒甫 Hengfu Liu
      苑冉 Ran Yuan
      王奕雯 Yiwen Wang

◎简  介
    北漂女孩李慕嘉(李兰迪 饰)毕业后进入北京最知名的律所,靠着自己的勤奋努力从行政助理成为独当一面的律师。结识商场精英黎光(王阳 饰),飞速成长的同时两人的感情也几经波折;闺蜜田蓉(王菊 饰)毕业求职未果,误打误撞成为房产中介,与北京男孩李万兵(徐绍瑛 饰)仓促结婚,在婚后职业和感情都遭受了巨大考验;两人遭遇种种挫折但找到了心之所向。从2007到2019年,女孩们对人生的追求和希望在现实中身不由己地改变了模样,庆幸的是十年的磨砺最终还是求得了人生的向阳面,得以一路朝阳。

##### MediaInfo ######
General
Complete name : Sunrise.S01E28.2023.2160p.HQ.WEB-DL.H265.AAC-BlackTV.mp4
Format : MPEG-4
Format profile : Base Media
Codec ID : isom (isom/iso2/mp41)
File size : 6.40 GiB
Duration : 45 min 25 s
Overall bit rate mode : Variable
Overall bit rate : 20.2 Mb/s
Writing application : Lavf59.27.100

Video
ID : 1
Format : HEVC
Format/Info : High Efficiency Video Coding
Format profile : Main [email protected]@Main
Codec ID : hev1
Codec ID/Info : High Efficiency Video Coding
Duration : 45 min 25 s
Bit rate : 20.0 Mb/s
Width : 3 840 pixels
Height : 2 160 pixels
Display aspect ratio : 16:9
Frame rate mode : Constant
Frame rate : 25.000 FPS
Color space : YUV
Chroma subsampling : 4:2:0
Bit depth : 10 bits
Bits/(Pixel*Frame) : 0.096
Stream size : 6.34 GiB (99%)
Color range : Limited
Color primaries : BT.709
Transfer characteristics : BT.709
Matrix coefficients : BT.709
Codec configuration box : hvcC

Audio
ID : 2
Format : AAC LC
Format/Info : Advanced Audio Codec Low Complexity
Codec ID : mp4a-40-2
Duration : 45 min 25 s
Bit rate mode : Variable
Bit rate : 192 kb/s
Maximum bit rate : 195 kb/s
Channel(s) : 2 channels
Channel layout : L R
Sampling rate : 44.1 kHz
Frame rate : 43.066 FPS (1024 SPF)
Compression mode : Lossy
Stream size : 62.4 MiB (1%)
Default : Yes
Alternate group : 1

部分资源为软字幕,移动端推荐播放器:MxPlayer,nPlayer,infuse ,其他播放器请自行尝试。

部分资源为软字幕,电脑端推荐播放器:PotPlayer,完美解码,KMPLAYER,其他播放器请自行尝试。


相关标签: # 字幕