首页 世界内容详情

[2023] [台湾] [WEB-1080P] MUSIC MAKER 音乐主理人[第09集][国语配音/中文字幕].Music.Maker.2023.S01.1080p.WEB-DL.H264.AAC-Hu

2023-08-28 2 lxacg

[2023] [台湾] [WEB-1080P] MUSIC MAKER 音乐主理人[第09集][国语配音/中文字幕].Music.Maker.2023.S01.1080p.WEB-DL.H264.AAC-Hu

-->

完整标题:MUSIC MAKER 音乐主理人[第09集][国语配音/中文字幕].Music.Maker.2023.S01.1080p.WEB-DL.H264.AAC-Huawei 3.87GB



◎标  题 MUSIC MAKER 音乐主理人
◎片  名 MUSIC MAKER 音樂主理人
◎年  代 2023
◎产  地 中国台湾
◎IMDb链接 https://www.imdb.com/title//
◎豆瓣链接 https://movie.douban.com/subject/36393557/
◎演  员 陶晶莹 Momoco Tao
      邱宇辰 Chris Chiu
      李友廷 Yo Lee
      阎奕格 Janice Yan

◎简  介
    以原創音樂為主軸的音樂選秀節目。 鼓勵音樂創作者找回他們最原始的初衷,以自己的風格、自己的語言與文化,來完成他們獨樹一格的天然創作,讓這些被埋沒的原創音樂推手,得以重獲他們應得的尊敬與光采。

##### MediaInfo ######
General
Unique ID : 25389750967321245726556786400076882285 (0x1319E35EE7159D6F92A9C9336611E16D)
Complete name : Music.Maker.2023.S01E09.1080p.WEB-DL.H264.AAC-Huawei.mkv
Format : Matroska
Format version : Version 4
File size : 3.87 GiB
Duration : 1 h 10 min
Overall bit rate : 7 801 kb/s
Encoded date : UTC 2023-08-25 16:43:47
Writing application : mkvmerge v63.0.0 ('Everything') 32-bit
Writing library : libebml v1.4.2 + libmatroska v1.6.4

Video
ID : 1
Format : AVC
Format/Info : Advanced Video Codec
Format profile : [email protected]
Format settings : CABAC / 1 Ref Frames
Format settings, CABAC : Yes
Format settings, Reference frames : 1 frame
Format settings, GOP : M=1, N=60
Codec ID : V_MPEG4/ISO/AVC
Duration : 1 h 10 min
Bit rate mode : Constant
Bit rate : 8 000 kb/s
Width : 1 920 pixels
Height : 1 080 pixels
Display aspect ratio : 16:9
Frame rate mode : Constant
Frame rate : 29.970 (30000/1001) FPS
Color space : YUV
Chroma subsampling : 4:2:0
Bit depth : 8 bits
Scan type : Progressive
Bits/(Pixel*Frame) : 0.129
Stream size : 3.80 GiB (98%)
Default : Yes
Forced : No

Audio
ID : 2
Format : AAC LC
Format/Info : Advanced Audio Codec Low Complexity
Codec ID : A_AAC-2
Duration : 1 h 10 min
Bit rate : 125 kb/s
Channel(s) : 2 channels
Channel layout : L R
Sampling rate : 48.0 kHz
Frame rate : 46.875 FPS (1024 SPF)
Compression mode : Lossy
Stream size : 63.7 MiB (2%)
Language : Chinese
Default : Yes
Forced : No

部分资源为软字幕,移动端推荐播放器:MxPlayer,nPlayer,infuse ,其他播放器请自行尝试。

部分资源为软字幕,电脑端推荐播放器:PotPlayer,完美解码,KMPLAYER,其他播放器请自行尝试。


相关标签: # 字幕