首页 世界内容详情

[2023] [大陆] [动画] [WEB-1080P] 青莲剑仙传[第40集][国语配音/中文字幕].Legend.of.Lotus.Sword.Fairy.2023.S01.1080p.WEB-DL.H264.AA

2023-08-28 3 lxacg

[2023] [大陆] [动画] [WEB-1080P] 青莲剑仙传[第40集][国语配音/中文字幕].Legend.of.Lotus.Sword.Fairy.2023.S01.1080p.WEB-DL.H264.AA

-->

完整标题:青莲剑仙传[第40集][国语配音/中文字幕].Legend.of.Lotus.Sword.Fairy.2023.S01.1080p.WEB-DL.H264.AAC-Huawei 0.16GB



◎标  题 青莲剑仙传
◎译  名 Legend of Lotus Sword Fairy
◎年  代 2023
◎产  地 中国大陆
◎类  别 动画 / 武侠 / 古装
◎语  言 汉语普通话
◎IMDb链接 https://www.imdb.com/title//
◎豆瓣链接 https://movie.douban.com/subject/36358237/
◎编  剧 发飙的蜗牛 Tai Wang
      暗魔师 Lihua Zhang
◎演  员 王珍亮 Zhenliang Wang
      芥末
      宴宁 Yan Ning
      陆敏悦 Mace
      大白 Siro
      徐翔 Xiang Xu
      孙路路 Lulu Sun
      钟巍 Wei Zhong
      张妮 Ni Zhang
      柳知萧 Zhixiao Liu

◎简  介
    苍云界,仙魔两道相争不断。 徐长青出身青莲剑谷,一心想当剑仙,好景不长,苍月宫第九魔将入侵青莲剑谷,徐长青爷爷牺牲,徐长青获得“青莲帝剑”的认可,与第九魔将对抗不敌。后昆仑太白剑仙秋无涯赶到,击退魔门,将徐长青和牧紫熏带至昆仑。昆仑众真人想夺青莲帝剑,被秋无涯呵止。徐长青觉醒了自己的仙灵“混沌聚灵碑”,被秋无涯收作弟子。在仙剑大比中,徐长青击败夏青候夺得头冠,获得进入昆仑禁地的资格,为了找到能够复活爷爷的不老神泉,徐长青选择踏入凶险的昆仑禁地。

##### MediaInfo ######
General
Complete name : Legend.of.Lotus.Sword.Fairy.2023.S01E40.1080p.WEB-DL.H264.AAC-Huawei.mp4
Format : MPEG-4
Format profile : Base Media
Codec ID : isom (isom/iso2/avc1/mp41)
File size : 167 MiB
Duration : 9 min 37 s
Overall bit rate mode : Variable
Overall bit rate : 2 432 kb/s
Recorded date : 2023-08-27T10:47:08.2754413+08:00
Writing application : Lavf60.3.100

Video
ID : 1
Format : AVC
Format/Info : Advanced Video Codec
Format profile : High@L4
Format settings : CABAC / 3 Ref Frames
Format settings, CABAC : Yes
Format settings, Reference frames : 3 frames
Codec ID : avc1
Codec ID/Info : Advanced Video Coding
Duration : 9 min 37 s
Bit rate : 2 236 kb/s
Width : 1 920 pixels
Height : 1 080 pixels
Display aspect ratio : 16:9
Frame rate mode : Constant
Frame rate : 25.000 FPS
Color space : YUV
Chroma subsampling : 4:2:0
Bit depth : 8 bits
Scan type : Progressive
Bits/(Pixel*Frame) : 0.043
Stream size : 154 MiB (92%)
Color range : Limited
Color primaries : BT.709
Transfer characteristics : BT.709
Matrix coefficients : BT.709
Codec configuration box : avcC

Audio
ID : 2
Format : AAC LC
Format/Info : Advanced Audio Codec Low Complexity
Codec ID : mp4a-40-2
Duration : 9 min 37 s
Bit rate mode : Variable
Bit rate : 192 kb/s
Maximum bit rate : 195 kb/s
Channel(s) : 2 channels
Channel layout : L R
Sampling rate : 44.1 kHz
Frame rate : 43.066 FPS (1024 SPF)
Compression mode : Lossy
Stream size : 13.1 MiB (8%)
Default : Yes
Alternate group : 1

部分资源为软字幕,移动端推荐播放器:MxPlayer,nPlayer,infuse ,其他播放器请自行尝试。

部分资源为软字幕,电脑端推荐播放器:PotPlayer,完美解码,KMPLAYER,其他播放器请自行尝试。