首页 世界内容详情

[2009] [其它] [喜剧] [WEB-1080P] 玛莎和熊[全13集][国语配音/中文字幕].Masha.and.the.Bear.2020.S05.1080p.WEB-DL.H264.AAC-Huawei 1

2023-08-28 6 lxacg

[2009] [其它] [喜剧] [WEB-1080P] 玛莎和熊[全13集][国语配音/中文字幕].Masha.and.the.Bear.2020.S05.1080p.WEB-DL.H264.AAC-Huawei 1

-->

完整标题:玛莎和熊[全13集][国语配音/中文字幕].Masha.and.the.Bear.2020.S05.1080p.WEB-DL.H264.AAC-Huawei 1.57GB



◎标  题 玛莎和熊
◎译  名 玛莎与熊 / Masha and the Bear
◎片  名 Маша и Медведь
◎年  代 2009
◎产  地 俄罗斯
◎类  别 喜剧 / 动画 / 短片 / 儿童 / 奇幻
◎语  言 俄语
◎IMDb评分 7.5/10 (3560人评价)
◎IMDb链接 https://www.imdb.com/title/tt1884856/
◎豆瓣评分 9.4/10 (775人评价)
◎豆瓣链接 https://movie.douban.com/subject/6524285/

◎简  介
    在2009年的俄罗斯3D动画《玛莎和熊》中,大熊变成了超级友善的“爸爸”级人物,无微不至的照顾着顽皮的小玛莎。小玛莎从初次相遇起就一刻都不让憨憨的熊爸爸安静下来,各种搞笑,闯祸,结局总是和好如初。   这是一部值得和孩子、朋友一起看的喜剧,极为温馨> <

##### MediaInfo ######
General
Complete name : Masha.and.the.Bear.2020.S05E01.1080p.WEB-DL.H264.AAC-Huawei.mp4
Format : MPEG-4
Format profile : Base Media
Codec ID : isom (isom/iso2/avc1/mp41)
File size : 111 MiB
Duration : 7 min 56 s
Overall bit rate mode : Variable
Overall bit rate : 1 958 kb/s
Writing application : Lavf58.35.100

Video
ID : 1
Format : AVC
Format/Info : Advanced Video Codec
Format profile : High@L5
Format settings : CABAC / 5 Ref Frames
Format settings, CABAC : Yes
Format settings, Reference frames : 5 frames
Codec ID : avc1
Codec ID/Info : Advanced Video Coding
Duration : 7 min 56 s
Bit rate : 1 858 kb/s
Width : 1 920 pixels
Height : 1 080 pixels
Display aspect ratio : 16:9
Frame rate mode : Constant
Frame rate : 25.000 FPS
Color space : YUV
Chroma subsampling : 4:2:0
Bit depth : 8 bits
Scan type : Progressive
Bits/(Pixel*Frame) : 0.036
Stream size : 105 MiB (95%)
Color range : Limited
Color primaries : BT.709
Transfer characteristics : BT.709
Matrix coefficients : BT.709
Codec configuration box : avcC

Audio
ID : 2
Format : AAC LC
Format/Info : Advanced Audio Codec Low Complexity
Codec ID : mp4a-40-2
Duration : 7 min 56 s
Bit rate mode : Variable
Bit rate : 93.6 kb/s
Maximum bit rate : 96.1 kb/s
Channel(s) : 2 channels
Channel layout : L R
Sampling rate : 44.1 kHz
Frame rate : 43.066 FPS (1024 SPF)
Compression mode : Lossy
Stream size : 5.31 MiB (5%)
Default : Yes
Alternate group : 1

部分资源为软字幕,移动端推荐播放器:MxPlayer,nPlayer,infuse ,其他播放器请自行尝试。

部分资源为软字幕,电脑端推荐播放器:PotPlayer,完美解码,KMPLAYER,其他播放器请自行尝试。


相关标签: # 玛莎 # 字幕 # 播放器