首页 世界内容详情

[2021] [大陆] [真人秀] [WEB-1080P] 妙墨中国心[全6集][国语配音/中文字幕].Miao.Mo.Zhong.Guo.Xin.2021.1080p.WEB-DL.H264.AAC-Huawei 1.

2023-08-28 8 lxacg

[2021] [大陆] [真人秀] [WEB-1080P] 妙墨中国心[全6集][国语配音/中文字幕].Miao.Mo.Zhong.Guo.Xin.2021.1080p.WEB-DL.H264.AAC-Huawei 1.

-->

完整标题:妙墨中国心[全6集][国语配音/中文字幕].Miao.Mo.Zhong.Guo.Xin.2021.1080p.WEB-DL.H264.AAC-Huawei 1.43GB



◎标  题 妙墨中国心
◎年  代 2021
◎产  地 中国大陆
◎类  别 真人秀
◎语  言 汉语普通话
◎IMDb链接 https://www.imdb.com/title//
◎豆瓣链接 https://movie.douban.com/subject/35610256/
◎导  演 周路莎 Lusa Zhou
◎演  员 吴樾 Yue Wu
      钟楚曦 Elane Zhong
      李玉刚 Yugang Li
      于毅 Yi Yu
      于湉 Tan Yu
      钱文忠 Wenzhong Qian
      沈涛 Tao Shen
      林杰妮 Jieni Lin
      朱戬 Jian Zhu
      陈振濂
      王冬龄

◎简  介
    笔下五千年,妙墨中国心。《妙墨中国心》由浙江卫视原创打造,是全国首档书法美育交互式电视文艺节目。节目邀请的书法、文化名家和书法爱好者将分别组成“解墨团”和“寻墨团”,从不同视角来探寻书法背后的千年墨韵。节目共六期,从行书、草书、篆书、隶书、楷书、书法之变六个主题揭示书法作为我国独有的艺术形式和文化瑰宝在历史长河中的发展历程。节目寻书法大美,叙中国精神。

##### MediaInfo ######
General
Complete name : [妙墨中国心].Miao.Mo.Zhong.Guo.Xin.2021.E01.1080p.WEB-DL.H264.AAC-Huawei.mp4
Format : MPEG-4
Format profile : Base Media
Codec ID : isom (isom/iso2/avc1/mp41)
File size : 240 MiB
Duration : 18 min 2 s
Overall bit rate mode : Variable
Overall bit rate : 1 863 kb/s
Writing application : Lavf58.32.104

Video
ID : 1
Format : AVC
Format/Info : Advanced Video Codec
Format profile : High@L4
Format settings : CABAC / 3 Ref Frames
Format settings, CABAC : Yes
Format settings, Reference frames : 3 frames
Codec ID : avc1
Codec ID/Info : Advanced Video Coding
Duration : 18 min 2 s
Bit rate : 1 666 kb/s
Width : 1 920 pixels
Height : 1 080 pixels
Display aspect ratio : 16:9
Frame rate mode : Constant
Frame rate : 25.000 FPS
Color space : YUV
Chroma subsampling : 4:2:0
Bit depth : 8 bits
Scan type : Progressive
Bits/(Pixel*Frame) : 0.032
Stream size : 215 MiB (89%)
Color range : Limited
Color primaries : BT.709
Transfer characteristics : BT.709
Matrix coefficients : BT.709
Codec configuration box : avcC

Audio
ID : 2
Format : AAC LC
Format/Info : Advanced Audio Codec Low Complexity
Codec ID : mp4a-40-2
Duration : 18 min 2 s
Bit rate mode : Variable
Bit rate : 192 kb/s
Maximum bit rate : 194 kb/s
Channel(s) : 2 channels
Channel layout : L R
Sampling rate : 44.1 kHz
Frame rate : 43.066 FPS (1024 SPF)
Compression mode : Lossy
Stream size : 24.5 MiB (10%)
Default : Yes
Alternate group : 1

部分资源为软字幕,移动端推荐播放器:MxPlayer,nPlayer,infuse ,其他播放器请自行尝试。

部分资源为软字幕,电脑端推荐播放器:PotPlayer,完美解码,KMPLAYER,其他播放器请自行尝试。


相关标签: # 中国 # 字幕 # 播放器